Author Topic: Will not play AVI files with a XVID codec  (Read 77 times)

Offline CAZ74

  • Newbie
  • Posts: 1
  • Helpful Contribution Status: +0/-0
Will not play AVI files with a XVID codec
« on: June 11, 2017, 08:38:49 pm »
I have a MED400X2S and it will not play certain AVI files.  I have checked the codec on them and they are not DIVX but XVID.  Here is the mediainfo for one of them.

General
Complete name                            : C:\Users\marti\OneDrive\Documents\Vuze Downloads\Stargate Atlantis Season 01 Episode 01 & 02 - Rising.avi
Format                                   : AVI
Format/Info                              : Audio Video Interleave
File size                                : 699 MiB
Duration                                 : 1 h 24 min
Overall bit rate mode                    : Variable
Overall bit rate                         : 1 156 kb/s
Director                                 : TSV Productions

Video
ID                                       : 0
Format                                   : MPEG-4 Visual
Format profile                           : Advanced Simple@L5
Format settings, BVOP                    : No
Format settings, QPel                    : Yes
Format settings, GMC                     : 3 warppoints
Format settings, Matrix                  : Default (H.263)
Codec ID                                 : XVID
Codec ID/Hint                            : XviD
Duration                                 : 1 h 24 min
Bit rate                                 : 1 016 kb/s
Width                                    : 608 pixels
Height                                   : 336 pixels
Display aspect ratio                     : 16:9
Frame rate                               : 25.000 FPS
Color space                              : YUV
Chroma subsampling                       : 4:2:0
Bit depth                                : 8 bits
Scan type                                : Progressive
Compression mode                         : Lossy
Bits/(Pixel*Frame)                       : 0.199
Stream size                              : 614 MiB (88%)
Title                                    : Stargate Atlantis - [1x01-02] - Rising - [XviD]-[MEDiEVAL].avi
Writing library                          : XviD 1.0.3 (UTC 2004-12-20)

Audio
ID                                       : 1
Format                                   : MPEG Audio
Format version                           : Version 1
Format profile                           : Layer 3
Mode                                     : Joint stereo
Mode extension                           : MS Stereo
Codec ID                                 : 55
Codec ID/Hint                            : MP3
Duration                                 : 1 h 24 min
Bit rate mode                            : Variable
Bit rate                                 : 128 kb/s
Channel(s)                               : 2 channels
Sampling rate                            : 48.0 kHz
Compression mode                         : Lossy
Stream size                              : 77.2 MiB (11%)
Alignment                                : Aligned on interleaves
Interleave, duration                     : 24  ms (0.60 video frame)
Interleave, preload duration             : 12  ms
Writing library                          : LAME3.92

Why will it not play this when it plays most of my other XVID AVI files?