Author Topic: Problem playing a videofile  (Read 632 times)

Offline Sten1972

  • Active Member
  • *
  • Posts: 66
  • Helpful Contribution Status: +0/-0
Problem playing a videofile
« on: June 23, 2016, 07:57:17 am »
Hi. I've played thousands of different files without problem on my Mede8ers but this won't just work correctly, works fine on my old laptop though. The video plays to slow (frame by frame) and the audio doesn't work at all. Here's the info (yes I know the bitrate is very low but it's just a documenatry film):
Format                                   : DivX
Format/Info                              : Hack of AVI
Format profile                           : OpenDML
File size                                : 3.22 GiB
Duration                                 : 3h 51mn
Overall bit rate                         : 1 993 Kbps
Movie name                               : www.RARBG.com
Writing application                      : Lavf55.14.101

Video
ID                                       : 0
Format                                   : MPEG-4 Visual
Format profile                           : Advanced Simple@L5
Format settings, BVOP                    : 5
Format settings, QPel                    : No
Format settings, GMC                     : No warppoints
Format settings, Matrix                  : Default (H.263)
Codec ID                                 : XVID
Codec ID/Hint                            : XviD
Duration                                 : 3h 51mn
Bit rate                                 : 1 522 Kbps
Width                                    : 720 pixels
Height                                   : 404 pixels
Display aspect ratio                     : 16:9
Original display aspect ratio            : 16:9
Frame rate                               : 23.976 fps
Color space                              : YUV
Chroma subsampling                       : 4:2:0
Bit depth                                : 8 bits
Scan type                                : Progressive
Compression mode                         : Lossy
Bits/(Pixel*Frame)                       : 0.218
Stream size                              : 2.46 GiB (76%)
Writing library                          : XviD 64

Audio
ID                                       : 1
Format                                   : AC-3
Format/Info                              : Audio Coding 3
Codec ID                                 : 00001000-0000-0020-8000-00AA00389B71
Duration                                 : 3h 51mn
Bit rate                                 : 384 Kbps
Channel(s)                               : 6 channels
Channel positions                        : Front: L C R, Back: L R, LFE
Sampling rate                            : 48.0 KHz
Bit depth                                : 16 bits
Compression mode                         : Lossy
Stream size                              : 635 MiB (19%)
Interleave, duration                     : 32 ms (0.77 video frame)
Interleave, preload duration             : 32 ms

Text #1
ID                                       : 2
Format                                   : DivX Subtitle
Codec ID                                 : DXSB
Codec ID/Info                            : Subtitle in AVI from DivX networks
Width                                    :  character0
Height                                   :  character0
Bit depth                                : 24 bits
Stream size                              : 67.1 MiB (2%)

Text #2
ID                                       : 3
Format                                   : DivX Subtitle
Codec ID                                 : DXSB
Codec ID/Info                            : Subtitle in AVI from DivX networks
Width                                    :  character0
Height                                   :  character0
Bit depth                                : 24 bits
Stream size                              : 60.3 MiB (2%)

Offline Maasbommel

  • Global Moder8or
  • M8er Addict
  • *****
  • Posts: 11 506
  • Helpful Contribution Status: +49/-8
Re: Problem playing a videofile
« Reply #1 on: June 23, 2016, 05:30:07 pm »
Try a search on Simple@L5 in the search bar on the right top of the forum.
You will find several same posts regarding this used profile with a bunch of explanations what could be the root case of it not playing properly.
Read the  Mede8er 400X/500X Beginners Guide
or Mede8er 500X2/400X2/450X2 Beginners Guide

Also check the Couto X3D Newbies Guide first.

Please don't PM me but post on the forum.