Author Topic: MED250X: FLAC CUE, APE CUE  (Read 1114 times)

Offline LeslieW

  • Newbie
  • Posts: 1
  • Helpful Contribution Status: +0/-0
MED250X: FLAC CUE, APE CUE
« on: December 02, 2015, 09:45:51 am »
I use s single FLAC file with a CUE file to achieve gapless playback of certain audio CD's, which works (and checks out) fine on my PC.

On the MED250X, selecting the CUE file immediately bombs/shuts down the player. After some experimentation, and reading other experiences on this forum, I simplified the CUE file(s) to exclude the "PERFORMER" line which repeats on every track, so now I have a very simple CUE (pasted below), however when trying to play, although it gives me a list of tracks on the player, the tracks do not play. I've tried APE CUE, WAVE CUE and OGG CUE, with the same results. My player has the v1.7 firmware, and I have also downgraded to the v1.6 with the same result.

Any ideas?

TITLE "Kismet"
PERFORMER "Aurah"
FILE "AurahKismet.flac" WAVE
  TRACK 01 AUDIO
    TITLE "The Arrival"
    INDEX 01 00:00:00
  TRACK 02 AUDIO
    TITLE "Strange Allure"
    INDEX 01 04:45:00
  TRACK 03 AUDIO
    TITLE "The Calling"
    INDEX 01 11:19:22