Author Topic: MED800X3D does not play TS video file  (Read 97 times)

Offline Harry_993

  • Newbie
  • Posts: 27
  • Helpful Contribution Status: +0/-0
MED800X3D does not play TS video file
« on: September 09, 2019, 04:38:00 pm »
Hiya,

for some reason my med does not Play a mpeg-ts file, but i can watch it on my pc using VLC Player without any issues. All other ts files run fine on my med.

When i start playback, i get message invalid file

here are the specs are of the file:
Video
ID                             : 33 (0x21)
Menu ID                        : 1 (0x1)
Format                         : AVC
Format/Info                    : Advanced Video Codec
Format profile                 : High 4:2:2@L4.1
Format settings                : CABAC / 4 Ref Frames
Format settings, CABAC         : Yes
Format settings, ReFrames      : 4 frames
Codec ID                       : 27
Duration                       : 31 min 16 s
Bit rate                       : 32.5 Mb/s
Width                          : 1 920 pixels
Height                         : 1 080 pixels
Display aspect ratio           : 16:9
Frame rate                     : 25.000 FPS
Color space                    : YUV
Chroma subsampling             : 4:2:2
Bit depth                      : 8 bits
Scan type                      : Interlaced
Scan type, store method        : Separated fields
Scan order                     : Top Field First
Bits/(Pixel*Frame)             : 0.627
Stream size                    : 7.10 GiB (94%)
Color range                    : Limited
Color primaries                : BT.709
Transfer characteristics       : BT.709
Matrix coefficients            : BT.709
Audio
ID                             : 34 (0x22)
Menu ID                        : 1 (0x1)
Format                         : MPEG Audio
Format version                 : Version 1
Format profile                 : Layer 2
Codec ID                       : 3
Duration                       : 31 min 16 s
Bit rate mode                  : Constant
Bit rate                       : 256 kb/s
Channel(s)                     : 2 channels
Sampling rate                  : 48.0 kHz
Frame rate                     : 41.667 FPS (1152 SPF)
Compression mode               : Lossy
Delay relative to video        : 110 ms
Stream size                    : 57.3 MiB (1%)
Language                       : English

Any idea what might be the reason?
i appreciate any Input

cheers
Harry


Mede8er  MED800X3D, FW V3.0.4